extratorrent - A Fan Made Alternative Login   |   Register
Important Information
Registrations are open now
-------------------------------------

Please click here to register with Extratorrent2 to recieve latest updates, add bookmarks and to post comments.

Friends
Friends

1) ProxyFix

Extratorrent2 > Categories > TV > Arrow (2012) Season 6 S06 (1080p AMZN WEB-DL x265 HEVC 10bit AAC 5.1 Vyndros) torrent


Browse TV torrents

Arrow (2012) Season 6 S06 (1080p AMZN WEB-DL x265 HEVC 10bit AAC 5.1 Vyndros) torrent


Download torrent: Download Arrow (2012) Season 6 S06 (1080p AMZN WEB-DL x265 HEVC 10bit AAC 5.1 Vyndros) torrent Magnet link Bookmark Torrent: Arrow (2012) Season 6 S06 (1080p AMZN WEB-DL x265 HEVC 10bit AAC 5.1 Vyndros)   Arrow (2012) Season 6 S06 (1080p AMZN WEB-DL x265 HEVC 10bit AAC 5.1 Vyndros) torrent
Info hash: 12934D53ED1376CAF8EB6424F70AC7482532EA3F
Category: Categories > TV
Trackers:
View all torrent trackers >
Health:
 seeds: 9 ,  leechers: 13 |  Update >
Torrent language: English English
Total Size: 15.4 GB
Files List:
23    View torrent files >
Uploader:
Vyndros
Torrent added: May 21, 2018, 6:52 am
Tags: action, scifi, superhero
Users rating: ---, not rated. please login to rate.

Download Arrow (2012) Season 6 S06 (1080p AMZN WEB-DL x265 HEVC 10bit AAC 5.1 Vyndros) torrent



Torrent Description











Media Information

Code:

General
Format : Matroska
Format version : Version 4 / Version 2
File size : 687 MiB
Duration : 42 min 18 s
Overall bit rate : 2 270 kb/s
Encoded date : UTC 2018-05-20 12:12:56
Writing application : mkvmerge v23.0.0 ('The Bride Said No') 64-bit
Writing library : libebml v1.3.6 + libmatroska v1.4.9

Video
ID : 1
Format : HEVC
Format/Info : High Efficiency Video Coding
Format profile : Main @Main
Codec ID : V_MPEGH/ISO/HEVC
Duration : 42 min 18 s
Bit rate : 1 819 kb/s
Width : 1 920 pixels
Height : 1 080 pixels
Display aspect ratio : 16:9
Frame rate mode : Constant
Frame rate : 23.976 (24000/1001) FPS
Color space : YUV
Chroma subsampling : 4:2:0
Bit depth : 10 bits
Bits/(Pixel*Frame) : 0.037
Stream size : 551 MiB (80%)
Writing library : x265 2.7+346-69aafa6d70ad:[Windows][GCC 7.3.0][64 bit] 10bit
Encoding settings : cpuid=1111039 / frame-threads=3 / numa-pools=12 / wpp / no-pmode / no-pme / no-psnr / ssim / log-level=2 / input-csp=1 / input-res=1920x1080 / interlace=0 / total-frames=60862 / level-idc=0 / high-tier=1 / uhd-bd=0 / ref=3 / no-allow-non-conformance / no-repeat-headers / annexb / no-aud / no-hrd / info / hash=0 / no-temporal-layers / open-gop / min-keyint=23 / keyint=250 / gop-lookahead=0 / bframes=8 / b-adapt=2 / b-pyramid / bframe-bias=0 / rc-lookahead=50 / lookahead-slices=6 / scenecut=40 / radl=0 / no-intra-refresh / ctu=64 / min-cu-size=8 / no-rect / no-amp / max-tu-size=32 / tu-inter-depth=1 / tu-intra-depth=1 / limit-tu=0 / rdoq-level=0 / dynamic-rd=0.00 / no-ssim-rd / signhide / no-tskip / nr-intra=0 / nr-inter=0 / no-constrained-intra / no-strong-intra-smoothing / max-merge=3 / limit-refs=3 / no-limit-modes / me=3 / subme=3 / merange=57 / temporal-mvp / weightp / no-weightb / no-analyze-src-pics / deblock=0:0 / sao / no-sao-non-deblock / rd=3 / no-early-skip / no-rskip / no-fast-intra / no-tskip-fast / no-cu-lossless / no-b-intra / no-splitrd-skip / rdpenalty=0 / psy-rd=1.50 / psy-rdoq=0.00 / no-rd-refine / no-lossless / cbqpoffs=0 / crqpoffs=0 / rc=crf / crf=21.0 / qcomp=0.60 / qpstep=4 / stats-write=0 / stats-read=0 / ipratio=1.40 / pbratio=1.30 / aq-mode=3 / aq-strength=0.80 / cutree / zone-count=0 / no-strict-cbr / qg-size=32 / no-rc-grain / qpmax=69 / qpmin=0 / no-const-vbv / sar=0 / overscan=0 / videoformat=5 / range=0 / colorprim=2 / transfer=2 / colormatrix=2 / chromaloc=0 / display-window=0 / max-cll=0,0 / min-luma=0 / max-luma=1023 / log2-max-poc-lsb=8 / vui-timing-info / vui-hrd-info / slices=1 / no-opt-qp-pps / no-opt-ref-list-length-pps / no-multi-pass-opt-rps / scenecut-bias=0.05 / no-opt-cu-delta-qp / no-aq-motion / no-hdr / no-hdr-opt / no-dhdr10-opt / no-idr-recovery-sei / analysis-reuse-level=5 / scale-factor=0 / refine-intra=0 / refine-inter=0 / refine-mv=0 / no-limit-sao / ctu-info=0 / no-lowpass-dct / refine-mv-type=0 / copy-pic=1 / max-ausize-factor=1.0 / no-dynamic-refine / no-single-sei
Default : Yes
Forced : No

Audio
ID : 2
Format : AAC
Format/Info : Advanced Audio Codec
Format profile : LC
Codec ID : A_AAC
Duration : 42 min 18 s
Bit rate : 448 kb/s
Channel(s) : 6 channels
Channel positions : Front: L C R, Side: L R, LFE
Sampling rate : 48.0 kHz
Frame rate : 46.875 FPS (1024 spf)
Compression mode : Lossy
Stream size : 136 MiB (20%)
Language : English
Default : Yes
Forced : Yes

Subtitle
ID : 3
Format : UTF-8
Codec ID : S_TEXT/UTF8
Codec ID/Info : UTF-8 Plain Text
Duration : 42 min 11 s
Bit rate : 72 b/s
Count of elements : 753
Stream size : 22.3 KiB (0%)
Default : Yes
Forced : No



Source Information

Code:

Release:
Amazon WEB-DL



Download Arrow (2012) Season 6 S06 (1080p AMZN WEB-DL x265 HEVC 10bit AAC 5.1 Vyndros) torrent


Related Torrents


Comments   (please login to add your comment!)

fixation     making     xxx new 2018     3d sbs     the big bang theory     iphone     bad babe bends over for cash     guardians 2017     she male perverts 03     kri 033     strike back     insecure season 2     ddr     true     little kink     10 10     nicolette shea stepmoms     dorati     sir     the brave s01e13     hindi xrg     windows xp sp3 x64     hot singles rap hip hop     sensitive     


Home - Browse Torrents

Made with love by an Extratorrent Fan!