extratorrent - A Fan Made Alternative Login   |   Register
Important Information
Registrations are open now
-------------------------------------

Please click here to register with Extratorrent2 to recieve latest updates, add bookmarks and to post comments.

Friends
Friends

1) ProxyFix

Extratorrent2 > Categories > Movies > The Assassins Code (2018) 720p DVDRip x264 AAC by Full4movies torrent


Browse Movies torrents

The Assassins Code (2018) 720p DVDRip x264 AAC by Full4movies torrent


Download torrent: Download The Assassins Code (2018) 720p DVDRip x264 AAC by Full4movies torrent Magnet link Bookmark Torrent: The Assassins Code (2018) 720p DVDRip x264 AAC by Full4movies   The Assassins Code (2018) 720p DVDRip x264 AAC by Full4movies torrent
Info hash: 493A05F85707909BDAB89C536A7FC5088292D4CA
Category: Categories > Movies
Trackers:
View all torrent trackers >
Health:
 seeds: 77 ,  leechers: 34 |  Update >
Torrent language: English English
Total Size: 801.1 MB
Files List:
1    View torrent files >
Uploader:
shmasti
Torrent added: May 12, 2018, 3:32 pm
Tags: Thriller, Drama
Users rating: ---, not rated. please login to rate.

Download The Assassins Code (2018) 720p DVDRip x264 AAC by Full4movies torrent



Torrent Description



General
Complete name : The Assassins Code (2018) 720p DVDRip x264 AAC by Full4movies.mkv
Format : Matroska
Format version : Version 4 / Version 2
File size : 801 MiB
Duration : 1 h 35 min
Overall bit rate : 1 168 kb/s
Movie name : The Assassin's Code (2018)
Encoded date : UTC 2018-05-12 05:27:56
Writing application : mkvmerge v8.1.0 ('Psychedelic Postcard') 32bit
Writing library : libebml v1.3.1 + libmatroska v1.4.2

Video
ID : 1
Format : AVC
Format/Info : Advanced Video Codec
Format profile :
Format settings, CABAC : Yes
Format settings, RefFrames : 4 frames
Codec ID : V_MPEG4/ISO/AVC
Duration : 1 h 35 min
Bit rate : 1 037 kb/s
Width : 1 280 pixels
Height : 528 pixels
Display aspect ratio : 2.40:1
Frame rate mode : Variable
Frame rate : 23.976 FPS
Color space : YUV
Chroma subsampling : 4:2:0
Bit depth : 8 bits
Scan type : Progressive
Bits/(Pixel*Frame) : 0.064
Stream size : 711 MiB (89%)
Writing library : x264 core 155 r2893 b00bcaf
Default : Yes
Forced : No
Color range : Limited
Color primaries : BT.709
Transfer characteristics : BT.709
Matrix coefficients : BT.709

Audio
ID : 2
Format : AAC
Format/Info : Advanced Audio Codec
Format profile : LC
Codec ID : A_AAC
Duration : 1 h 35 min
Bit rate : 128 kb/s
Channel(s) : 2 channels
Channel positions : Front: L R
Sampling rate : 48.0 kHz
Frame rate : 46.875 FPS (1024 SPF)
Compression mode : Lossy
Delay relative to video : -21 ms
Stream size : 87.9 MiB (11%)
Language : English
Default : Yes
Forced : No

Screen Shoots


Download The Assassins Code (2018) 720p DVDRip x264 AAC by Full4movies torrent


Related Torrents


Comments   (please login to add your comment!)


Home - Browse Torrents

Made with love by an Extratorrent Fan!