extratorrent - A Fan Made Alternative Login   |   Register
Important Information
Registrations are open now
-------------------------------------

Please click here to register with Extratorrent2 to recieve latest updates, add bookmarks and to post comments.

Friends
Friends

1) ProxyFix

Extratorrent2 > Categories > TV > The Flash (2014) S04E23 (1080p AMZN WEB-DL x265 HEVC 10bit AC3 5.1 Qman) [UTR] torrent


Browse TV torrents

The Flash (2014) S04E23 (1080p AMZN WEB-DL x265 HEVC 10bit AC3 5.1 Qman) [UTR] torrent


Download torrent: Download The Flash (2014) S04E23 (1080p AMZN WEB-DL x265 HEVC 10bit AC3 5.1 Qman) [UTR] torrent Magnet link Bookmark Torrent: The Flash (2014) S04E23 (1080p AMZN WEB-DL x265 HEVC 10bit AC3 5.1 Qman) [UTR]   The Flash (2014) S04E23 (1080p AMZN WEB-DL x265 HEVC 10bit AC3 5.1 Qman) [UTR] torrent
Info hash: 7320A7035D144CA75A038EB3F810802E6A3A34C1
Category: Categories > TV
Trackers:
View all torrent trackers >
Health:
 seeds: 15 ,  leechers: 6 |  Update >
Torrent language: English English
Total Size: 1.5 GB
Files List:
1    View torrent files >
Uploader:
UTRCorp
Torrent added: May 28, 2018, 4:20 am
Tags: utr, qman, the, flash
Users rating: ---, not rated. please login to rate.

Download The Flash (2014) S04E23 (1080p AMZN WEB-DL x265 HEVC 10bit AC3 5.1 Qman) [UTR] torrent



Torrent Description








Media Information

Media Information

Code:

General
Format : Matroska
Format version : Version 4 / Version 2
File size : 1.49 GiB
Duration : 42 min 20 s
Overall bit rate : 5 044 kb/s
Encoded date : UTC 2018-05-24 14:42:04
Writing application : mkvmerge v23.0.0 ('The Bride Said No') 64-bit
Writing library : libebml v1.3.6 + libmatroska v1.4.9

Video
ID : 1
Format : HEVC
Format/Info : High Efficiency Video Coding
Format profile : Main @Main
Codec ID : V_MPEGH/ISO/HEVC
Duration : 42 min 20 s
Bit rate : 4 402 kb/s
Width : 1 920 pixels
Height : 1 080 pixels
Display aspect ratio : 16:9
Frame rate mode : Constant
Frame rate : 23.976 (24000/1001) FPS
Color space : YUV
Chroma subsampling : 4:2:0
Bit depth : 10 bits
Bits/(Pixel*Frame) : 0.089
Stream size : 1.30 GiB (87%)
Writing library : x265 2.7+344-091f07265371:[Windows][MSVC 1914][64 bit] 10bit
Encoding settings : cpuid=1111039 / frame-threads=4 / numa-pools=16 / wpp / no-pmode / no-pme / no-psnr / no-ssim / log-level=2 / input-csp=1 / input-res=1920x1080 / interlace=0 / total-frames=60904 / level-idc=0 / high-tier=1 / uhd-bd=0 / ref=4 / no-allow-non-conformance / no-repeat-headers / annexb / no-aud / no-hrd / info / hash=0 / no-temporal-layers / open-gop / min-keyint=23 / keyint=250 / gop-lookahead=0 / bframes=8 / b-adapt=2 / b-pyramid / bframe-bias=0 / rc-lookahead=25 / lookahead-slices=4 / scenecut=40 / radl=0 / no-intra-refresh / ctu=64 / min-cu-size=8 / rect / no-amp / max-tu-size=32 / tu-inter-depth=1 / tu-intra-depth=1 / limit-tu=0 / rdoq-level=2 / dynamic-rd=0.00 / no-ssim-rd / signhide / no-tskip / nr-intra=0 / nr-inter=0 / no-constrained-intra / strong-intra-smoothing / max-merge=3 / limit-refs=3 / limit-modes / me=3 / subme=3 / merange=57 / temporal-mvp / weightp / no-weightb / no-analyze-src-pics / deblock=0:0 / sao / no-sao-non-deblock / rd=4 / no-early-skip / rskip / no-fast-intra / no-tskip-fast / no-cu-lossless / no-b-intra / no-splitrd-skip / rdpenalty=0 / psy-rd=2.00 / psy-rdoq=2.00 / no-rd-refine / no-lossless / cbqpoffs=0 / crqpoffs=0 / rc=crf / crf=21.5 / qcomp=0.60 / qpstep=4 / stats-write=0 / stats-read=0 / ipratio=1.40 / pbratio=1.30 / aq-mode=2 / aq-strength=1.00 / cutree / zone-count=0 / no-strict-cbr / qg-size=32 / no-rc-grain / qpmax=69 / qpmin=0 / no-const-vbv / sar=0 / overscan=0 / videoformat=5 / range=0 / colorprim=2 / transfer=2 / colormatrix=2 / chromaloc=0 / display-window=0 / max-cll=0,0 / min-luma=0 / max-luma=1023 / log2-max-poc-lsb=8 / vui-timing-info / vui-hrd-info / slices=1 / no-opt-qp-pps / no-opt-ref-list-length-pps / no-multi-pass-opt-rps / scenecut-bias=0.05 / no-opt-cu-delta-qp / no-aq-motion / no-hdr / no-hdr-opt / no-dhdr10-opt / no-idr-recovery-sei / analysis-reuse-level=5 / scale-factor=0 / refine-intra=0 / refine-inter=0 / refine-mv=0 / no-limit-sao / ctu-info=0 / no-lowpass-dct / refine-mv-type=0 / copy-pic=1 / max-ausize-factor=1.0 / no-dynamic-refine / no-single-sei
Language : English
Default : Yes
Forced : No

Audio
ID : 2
Format : E-AC-3
Format/Info : Enhanced Audio Coding 3
Format settings, Endianness : Big
Codec ID : A_EAC3
Duration : 42 min 20 s
Bit rate mode : Constant
Bit rate : 640 kb/s
Channel(s) : 6 channels
Channel positions : Front: L C R, Side: L R, LFE
Sampling rate : 48.0 kHz
Frame rate : 187.500 FPS (256 spf)
Compression mode : Lossy
Stream size : 194 MiB (13%)
Language : English
Default : Yes
Forced : No

Subtitle
ID : 3
Format : UTF-8
Codec ID : S_TEXT/UTF8
Codec ID/Info : UTF-8 Plain Text
Duration : 41 min 45 s
Bit rate : 58 b/s
Count of elements : 671
Stream size : 18.0 KiB (0%)
Language : English
Default : Yes
Forced : No



Source Information

Code:

Release:
Unknown Source/NO-GROUP



Download The Flash (2014) S04E23 (1080p AMZN WEB-DL x265 HEVC 10bit AC3 5.1 Qman) [UTR] torrent


Related Torrents


Comments   (please login to add your comment!)

ava addams brutal dp     toy 1080p     ilka     hercules x265     war 2017     mrxd 012     ulia     vr kattie hill     dare     toy story of terror     sexmex     urdu     logan dts     sofia curly casting     desi indian xxx     the watcher 2000     harrisons principles     dual audio hindi english     great big boobies xxx     dvdip     presentation template     high times     jessica     assfucked milfs 2     


Home - Browse Torrents

Made with love by an Extratorrent Fan!