extratorrent - A Fan Made Alternative Login   |   Register
Important Information
Registrations are open now
-------------------------------------

Please click here to register with Extratorrent2 to recieve latest updates, add bookmarks and to post comments.

Friends
Friends

1) ProxyFix

Extratorrent2 > Categories > TV > [Prof] Game of Thrones Season 4 (1080p x265 HEVC 10bit AAC 5.1) torrent


Browse TV torrents

[Prof] Game of Thrones Season 4 (1080p x265 HEVC 10bit AAC 5.1) torrent


Download torrent: Download [Prof] Game of Thrones Season 4 (1080p x265 HEVC 10bit AAC 5.1) torrent Magnet link Bookmark Torrent: [Prof] Game of Thrones Season 4 (1080p x265 HEVC 10bit AAC 5.1)   [Prof] Game of Thrones Season 4 (1080p x265 HEVC 10bit AAC 5.1) torrent
Info hash: D81D6E6541F03F7C57F46E98E74655B508F0EA6A
Category: Categories > TV
Trackers:
View all torrent trackers >
Health:
 seeds: 4 ,  leechers: 5 |  Update >
Torrent language: English English
Total Size: 21.5 GB
Files List:
10    View torrent files >
Uploader:
Prof
Torrent added: May 28, 2018, 4:55 am
Users rating: ---, not rated. please login to rate.

Download [Prof] Game of Thrones Season 4 (1080p x265 HEVC 10bit AAC 5.1) torrent



Torrent Description

Format : Matroska
Format version : Version 4 / Version 2
File size : 2.11 GiB
Duration : 58 min 13 s
Overall bit rate : 5 180 kb/s
Movie name : Game Of Thrones Season 4 Disc 1
Encoded date : UTC 2018-05-07 11:47:22
Writing application : mkvmerge v9.6.0 ('Slave To Your Mind') 64bit
Writing library : libebml v1.3.4 + libmatroska v1.4.5

Video
ID : 1
Format : HEVC
Format/Info : High Efficiency Video Coding
Format profile : Main @Main
Codec ID : V_MPEGH/ISO/HEVC
Duration : 58 min 13 s
Bit rate : 4 365 kb/s
Width : 1 920 pixels
Height : 1 080 pixels
Display aspect ratio : 16:9
Frame rate mode : Constant
Frame rate : 23.976 (24000/1001) FPS
Color space : YUV
Chroma subsampling : 4:2:0
Bit depth : 10 bits
Bits/(Pixel*Frame) : 0.088
Stream size : 1.78 GiB (84%)
Writing library : x265 2.1+69-c97c64ab8b8e:[Windows][GCC 6.2.0][64 bit] 10bit
Encoding settings : cpuid=1173503 / frame-threads=2 / numa-pools=4 / wpp / no-pmode / no-pme / no-psnr / no-ssim / log-level=2 / input-csp=1 / input-res=1920x1080 / interlace=0 / total-frames=83751 / level-idc=0 / high-tier=1 / uhd-bd=0 / ref=4 / no-allow-non-conformance / no-repeat-headers / annexb / no-aud / no-hrd / info / hash=0 / no-temporal-layers / open-gop / min-keyint=23 / keyint=250 / bframes=4 / b-adapt=2 / b-pyramid / bframe-bias=0 / rc-lookahead=25 / lookahead-slices=4 / scenecut=40 / no-intra-refresh / ctu=64 / min-cu-size=8 / rect / no-amp / max-tu-size=32 / tu-inter-depth=1 / tu-intra-depth=1 / limit-tu=0 / rdoq-level=2 / signhide / no-tskip / nr-intra=0 / nr-inter=0 / no-constrained-intra / strong-intra-smoothing / max-merge=3 / limit-refs=3 / limit-modes / me=3 / subme=3 / merange=57 / temporal-mvp / weightp / no-weightb / no-analyze-src-pics / deblock=0:0 / sao / no-sao-non-deblock / rd=4 / no-early-skip / rskip / no-fast-intra / no-tskip-fast / no-cu-lossless / no-b-intra / rdpenalty=0 / psy-rd=2.00 / psy-rdoq=1.00 / no-rd-refine / analysis-mode=0 / no-lossless / cbqpoffs=0 / crqpoffs=0 / rc=crf / crf=18.0 / qcomp=0.60 / qpstep=4 / stats-write=0 / stats-read=0 / ipratio=1.40 / pbratio=1.30 / aq-mode=1 / aq-strength=1.00 / cutree / zone-count=0 / no-strict-cbr / qg-size=32 / no-rc-grain / qpmax=69 / qpmin=0 / sar=0 / overscan=0 / videoformat=5 / range=0 / colorprim=2 / transfer=2 / colormatrix=2 / chromaloc=0 / display-window=0 / max-cll=0,0 / min-luma=0 / max-luma=1023 / log2-max-poc-lsb=8 / vui-timing-info / vui-hrd-info / slices=1 / opt-qp-pps / opt-ref-list-length-pps / no-multi-pass-opt-rps / scenecut-bias=0.05
Default : Yes
Forced : No

Audio
ID : 2
Format : AAC
Format/Info : Advanced Audio Codec
Format profile : LC
Codec ID : A_AAC
Duration : 58 min 13 s
Bit rate : 800 kb/s
Channel(s) : 6 channels
Channel positions : Front: L C R, Side: L R, LFE
Sampling rate : 48.0 kHz
Frame rate : 46.875 FPS (1024 spf)
Compression mode : Lossy
Delay relative to video : 9 ms
Stream size : 333 MiB (15%)
Language : English
Default : No
Forced : No

Text #1
ID : 3
Format : PGS
Muxing mode : zlib
Codec ID : S_HDMV/PGS
Codec ID/Info : Picture based subtitle format used on BDs/HD-DVDs
Duration : 56 min 5 s
Bit rate : 12.9 kb/s
Count of elements : 1664
Stream size : 5.16 MiB (0%)
Language : English
Default : No
Forced : No

Text #2
ID : 4
Format : PGS
Muxing mode : zlib
Codec ID : S_HDMV/PGS
Codec ID/Info : Picture based subtitle format used on BDs/HD-DVDs
Duration : 11 s 887 ms
Bit rate : 16.7 kb/s
Count of elements : 10
Stream size : 24.2 KiB (0%)
Language : English
Default : No
Forced : No

Menu
00:00:00.000 : en:Chapter 01
00:00:07.424 : en:Chapter 02
00:01:50.485 : en:Chapter 03
00:03:38.760 : en:Chapter 04
00:09:27.775 : en:Chapter 05
00:17:01.979 : en:Chapter 06
00:25:16.264 : en:Chapter 07
00:36:17.842 : en:Chapter 08
00:46:36.251 : en:Chapter 09
00:56:51.324 : en:Chapter 10


Download [Prof] Game of Thrones Season 4 (1080p x265 HEVC 10bit AAC 5.1) torrent


Related Torrents


Comments   (please login to add your comment!)

linda moretti lauren     ts jay     nezu fifty shades     gentle     tasha naughtyweddings     breaking the girls 2012     jada stevens anal     fuck hd     booty 4     chicago fire s06e15     facialabuse     from dusk till dawn     mardaani     riddick dual audio     valentina nappi casey calvert     nessa anal     18 paramedics 2016     sniper 1     anal     choron     metro 2013     ladyboy bonus     vhdl     chanel shy     


Home - Browse Torrents

Made with love by an Extratorrent Fan!