extratorrent - A Fan Made Alternative Login   |   Register
Important Information
Registrations are open now
-------------------------------------

Please click here to register with Extratorrent2 to recieve latest updates, add bookmarks and to post comments.

Friends
Friends

1) ProxyFix

Extratorrent2 > Categories > Movies > Ghost.in.the.Shell.2017.2160p.UHD.HDR.BluRay.(x265 10bit DD5.1).[WMAN-LorD] torrent


Browse Movies torrents

Ghost.in.the.Shell.2017.2160p.UHD.HDR.BluRay.(x265 10bit DD5.1).[WMAN-LorD] torrent


Download torrent: Download Ghost.in.the.Shell.2017.2160p.UHD.HDR.BluRay.(x265 10bit DD5.1).[WMAN-LorD] torrent Magnet link Bookmark Torrent: Ghost.in.the.Shell.2017.2160p.UHD.HDR.BluRay.(x265 10bit DD5.1).[WMAN-LorD]   Ghost.in.the.Shell.2017.2160p.UHD.HDR.BluRay.(x265 10bit DD5.1).[WMAN-LorD] torrent
Info hash: BC968F36D8AE08A3146FC66C142772CA70269A74
Category: Categories > Movies
Trackers:
View all torrent trackers >
Health:
 seeds: 3 ,  leechers: 3 |  Update >
Torrent language: English English
Total Size: 4.2 GB
Files List:
1    View torrent files >
Uploader:
UHDLorD
Torrent added: March 1, 2018, 4:31 am
Tags: UHD, WMAN, action, crime, drama
Users rating: ---, not rated. please login to rate.

Download Ghost.in.the.Shell.2017.2160p.UHD.HDR.BluRay.(x265 10bit DD5.1).[WMAN-LorD] torrent



Torrent Description

Quote:

/!\ If you do not have a hdr monitor. Do this to reproduce right colors.

Download madVR ( www.madvr.com/ ).
Config: Unzip madVR -> copy madVR folder to C:\Program Files\ -> Run as administrator install.bat -> OK.

Download Media Player Classic - BE ( http://sourceforge.net/projects/mpcbe/ ).
Config: MPC-BE -> View -> Options -> Video -> Video Renderer -> Select madVR -> OK.

/!\ Original 4K releases with much noise, most are old movies. With much noise more bitrate is needed to maintain the quality and final file size are bigger. Releases with 60fps are bigger too.



Release info:


>Encoded by: [WMAN-LorD]
>HDR working!
>Subtitles.
>Chapters.
>Cover.
>SSIM:
>PSNR:
>Source: Blu-ray








Code:


General
Unique ID : 124267274985429011973968909980398576753 (0x5D7D01B08CB6B40F126F9B481DF0E471)
Complete name : Ghost.in.the.Shell.2017.2160p.UHD.HDR.BluRay.(x265 10bit DD5.1).[WMAN-LorD].mkv
Format : Matroska
Format version : Version 4 / Version 2
File size : 4.22 GiB
Duration : 1 h 46 min
Overall bit rate : 5 645 kb/s
Movie name : Ghost in the Shell
Encoded date : UTC 2018-02-26 16:00:30
Writing application : mkvmerge v20.0.0 ('I Am The Sun') 64-bit
Writing library : libebml v1.3.5 + libmatroska v1.4.8
Cover : Yes
Attachments : cover.jpg

Video
ID : 1
Format : HEVC
Format/Info : High Efficiency Video Coding
Format profile : Main @Main
Codec ID : V_MPEGH/ISO/HEVC
Duration : 1 h 46 min
Bit rate : 4 967 kb/s
Width : 3 840 pixels
Height : 2 160 pixels
Display aspect ratio : 16:9
Frame rate mode : Constant
Frame rate : 23.976 (24000/1001) FPS
Color space : YUV
Chroma subsampling : 4:2:0
Bit depth : 10 bits
Bits/(Pixel*Frame) : 0.025
Stream size : 3.71 GiB (88%)
Title : [WMAN-LorD]
Language : Portuguese
Default : Yes
Forced : No
Color range : Limited
Color primaries : BT.2020
Transfer characteristics : PQ
Matrix coefficients : BT.2020 non-constant

Audio
ID : 2
Format : AC-3
Format/Info : Audio Coding 3
Format settings, Endianness : Big
Codec ID : A_AC3
Duration : 1 h 46 min
Bit rate mode : Constant
Bit rate : 640 kb/s
Channel(s) : 6 channels
Channel positions : Front: L C R, Side: L R, LFE
Sampling rate : 48.0 kHz
Frame rate : 31.250 FPS (1536 SPF)
Bit depth : 16 bits
Compression mode : Lossy
Stream size : 489 MiB (11%)
Title : Compatibility Track (Dolby Digital Audio / 5.1-EX / 48 kHz / 640 kbps)
Language : English
Service kind : Complete Main
Default : No
Forced : No

Text #1
ID : 3
Format : PGS
Muxing mode : zlib
Codec ID : S_HDMV/PGS
Codec ID/Info : Picture based subtitle format used on BDs/HD-DVDs
Duration : 1 h 36 min
Bit rate : 21.8 kb/s
Count of elements : 1828
Stream size : 15.0 MiB (0%)
Title : Portuguese Brazil
Language : Portuguese
Default : Yes
Forced : No

Text #2
ID : 4
Format : PGS
Muxing mode : zlib
Codec ID : S_HDMV/PGS
Codec ID/Info : Picture based subtitle format used on BDs/HD-DVDs
Duration : 1 h 34 min
Bit rate : 21.7 kb/s
Count of elements : 1770
Stream size : 14.7 MiB (0%)
Language : English
Default : No
Forced : No

Text #3
ID : 5
Format : PGS
Muxing mode : zlib
Codec ID : S_HDMV/PGS
Codec ID/Info : Picture based subtitle format used on BDs/HD-DVDs
Duration : 1 h 35 min
Bit rate : 27.7 kb/s
Count of elements : 2258
Stream size : 18.9 MiB (0%)
Title : SDH
Language : English
Default : No
Forced : No

Text #4
ID : 6
Format : PGS
Muxing mode : zlib
Codec ID : S_HDMV/PGS
Codec ID/Info : Picture based subtitle format used on BDs/HD-DVDs
Duration : 1 h 36 min
Bit rate : 24.5 kb/s
Count of elements : 1998
Stream size : 16.8 MiB (0%)
Language : French
Default : No
Forced : No

Text #5
ID : 7
Format : PGS
Muxing mode : zlib
Codec ID : S_HDMV/PGS
Codec ID/Info : Picture based subtitle format used on BDs/HD-DVDs
Duration : 1 h 36 min
Bit rate : 22.9 kb/s
Count of elements : 1810
Stream size : 15.7 MiB (0%)
Title : Latin American
Language : Spanish
Default : No
Forced : No

Menu
00:00:00.000 : en: Chapter 1
00:08:09.364 : en: Chapter 2
00:14:40.004 : en: Chapter 3
00:21:26.535 : en: Chapter 4
00:28:02.723 : en: Chapter 5
00:34:13.260 : en: Chapter 6
00:39:27.657 : en: Chapter 7
00:43:57.844 : en: Chapter 8
00:51:49.857 : en: Chapter 9
00:55:19.107 : en: Chapter 10
01:01:06.913 : en: Chapter 11
01:07:49.774 : en: Chapter 12
01:14:37.014 : en: Chapter 13
01:20:31.785 : en: Chapter 14
01:27:46.219 : en: Chapter 15
01:33:41.449 : en: Chapter 16
01:38:00.124 : en: Chapter 17








Download Ghost.in.the.Shell.2017.2160p.UHD.HDR.BluRay.(x265 10bit DD5.1).[WMAN-LorD] torrent


Related Torrents


Comments   (please login to add your comment!)

spycey     panties cum     sweet ass     stepmomvideos     hot 2018     district 9 hindi     diners     sexual vr porn healing     sharepoint     david loman     sz1444     deepthroat alexa grace     hotpena     1080p hq     exxxtra small     angel on fire     kapoor     big trouble in little china hindi     exd     the twilight zone 2002     photographer     meyd 208     bangla hd     macbeth brrip     


Home - Browse Torrents

Made with love by an Extratorrent Fan!